[NSBC] Iyasaretai Otoko E10 [WEBDL] [720p]

Category:
Date:
2019-06-13 02:13 UTC
Submitter:
Seeders:
7
Information:
TlNCQy50bw==
Leechers:
3
File size:
570.6 MiB
Completed:
469
Info hash:
53b497cfffb16e6162605619dc13eb8deb1ff234
![poster](http://img.topddl.net/images/2f3a1d44528bcc95b3ea1e5c3ba3b605.jpg "") ![Thumbnail](http://img.topddl.net/images/94aa1440d840e662b695e526a72d68be.jpg "") ``` General Unique ID : 256849663733287238157236412291888842291 (0xC13B7223D04BB6FA4A20947E3EA60633) Complete name : [NSBC] Iyasaretai Otoko E10 [WEBDL] [720p].mkv Format : Matroska Format version : Version 4 File size : 571 MiB Duration : 25 min 34 s Overall bit rate : 3 120 kb/s Movie name : [NSBC] Iyasaretai Otoko E10 [WEBDL] [720p] Encoded by : NoNe | NSBC Encoded date : UTC 2019-06-13 02:09:01 Writing application : mkvmerge v34.0.0 ('Sight and Seen') 64-bit Writing library : libebml v1.3.7 + libmatroska v1.5.0 Copyright : NSBC Comment : NoNe | NSBC DATE_RECORDED : 2019 Video ID : 1 Format : AVC Format/Info : Advanced Video Codec Format profile : [email protected] Format settings : CABAC / 3 Ref Frames Format settings, CABAC : Yes Format settings, RefFrames : 3 frames Format settings, GOP : M=1, N=30 Codec ID : V_MPEG4/ISO/AVC Duration : 25 min 34 s Bit rate : 2 989 kb/s Width : 1 280 pixels Height : 720 pixels Display aspect ratio : 16:9 Frame rate mode : Constant Frame rate : 29.970 (30000/1001) FPS Color space : YUV Chroma subsampling : 4:2:0 Bit depth : 8 bits Scan type : Progressive Bits/(Pixel*Frame) : 0.108 Stream size : 547 MiB (96%) Title : [NSBC] Writing library : Zencoder Video Encoding System Default : Yes Forced : No Audio ID : 2 Format : AAC LC Format/Info : Advanced Audio Codec Low Complexity Codec ID : A_AAC-2 Duration : 25 min 34 s Bit rate : 128 kb/s Channel(s) : 2 channels Channel layout : L R Sampling rate : 48.0 kHz Frame rate : 46.875 FPS (1024 SPF) Compression mode : Lossy Stream size : 23.4 MiB (4%) Title : [NSBC] Language : Japanese Default : Yes Forced : No ```

File list

  • [NSBC] Iyasaretai Otoko E10 [WEBDL] [720p].mkv (570.6 MiB)
X
Warning! Use a VPN When Downloading Torrents!
Your Country is . IP Address is
Your Internet Provider can see when you download torrents! Hide your IP ADDRESS with a VPN!
We strongly recommend Trust.Zone VPN to hide your torrenting. It's FREE!
HIDE ME NOW