[NSBC] Hakui no Senshi E09 [WEBDL] [1080p]

Category:
Date:
2019-06-12 15:14 UTC
Submitter:
Seeders:
7
Information:
TlNCQy50bw==
Leechers:
3
File size:
792.0 MiB
Completed:
676
Info hash:
b0464ed80290890d26920ef6bfb0a4c776332319
![POSTER](http://img.topddl.net/images/76936e74edfd1dab488dc1ca56c95883.png "") ![Thumbnails](http://img.topddl.net/images/dcca0ec0b5bc165ff2214d8149cb10eb.jpg "") ``` General Unique ID : 68992435060385625567364287548623467663 (0x33E775AC66F6C3C0A00BA944EFE8B48F) Complete name : [NSBC] Hakui no Senshi E09 [WEBDL] [1080p].mkv Format : Matroska Format version : Version 4 File size : 792 MiB Duration : 50 min 42 s Overall bit rate : 2 184 kb/s Movie name : [NSBC] Hakui no Senshi E09 [WEBDL] [1080p] Encoded by : NoNe | NSBC Encoded date : UTC 2019-06-12 15:03:58 Writing application : mkvmerge v34.0.0 ('Sight and Seen') 64-bit Writing library : libebml v1.3.7 + libmatroska v1.5.0 Copyright : NSBC Comment : NoNe | NSBC DATE_RECORDED : 2019 Video ID : 1 Format : AVC Format/Info : Advanced Video Codec Format profile : [email protected] Format settings : CABAC / 4 Ref Frames Format settings, CABAC : Yes Format settings, RefFrames : 4 frames Codec ID : V_MPEG4/ISO/AVC Duration : 50 min 41 s Bit rate : 2 118 kb/s Width : 1 920 pixels Height : 1 080 pixels Display aspect ratio : 16:9 Frame rate mode : Constant Frame rate : 29.970 (30000/1001) FPS Color space : YUV Chroma subsampling : 4:2:0 Bit depth : 8 bits Scan type : Progressive Bits/(Pixel*Frame) : 0.034 Stream size : 768 MiB (97%) Title : [NSBC] Writing library : Zencoder Video Encoding System Default : Yes Forced : No Audio ID : 2 Format : AAC LC Format/Info : Advanced Audio Codec Low Complexity Codec ID : A_AAC-2 Duration : 50 min 42 s Bit rate : 64.0 kb/s Channel(s) : 2 channels Channel layout : L R Sampling rate : 48.0 kHz Frame rate : 46.875 FPS (1024 SPF) Compression mode : Lossy Delay relative to video : -67 ms Stream size : 23.2 MiB (3%) Title : [NSBC] Language : Japanese Default : Yes Forced : No ```

File list

  • [NSBC] Hakui no Senshi E09 [WEBDL] [1080p].mkv (792.0 MiB)
X
Warning! Use a VPN When Downloading Torrents!
Your Country is . IP Address is
Your Internet Provider can see when you download torrents! Hide your IP ADDRESS with a VPN!
We strongly recommend Trust.Zone VPN to hide your torrenting. It's FREE!
HIDE ME NOW