[NSBC] Village Vanguard! E05 [WEBDL] [1080p]

Category:
Date:
2019-06-12 01:39 UTC
Submitter:
Seeders:
5
Information:
TlNCQy50bw==
Leechers:
2
File size:
505.6 MiB
Completed:
331
Info hash:
3ac75fa085ad697e60f2231433e1ba398c0e00f0
> ### More Info: [Here](https://mydramalist.info/title/50984/vile_van%21) ![POSTER](http://img.topddl.net/images/02a3590e77e5872f893ea7a37e4612cf.png "") ![Thumbnails](http://img.topddl.net/images/57d070078a887362eff02a3c675a0b93.jpg "") ``` General Unique ID : 82537599445219980971393316011718605343 (0x3E1829D69C2980447F995F1612C1FA1F) Complete name : [NSBC] Village Vanguard! E05 [WEBDL] [1080p].mkv Format : Matroska Format version : Version 4 File size : 506 MiB Duration : 23 min 36 s Overall bit rate : 2 995 kb/s Movie name : [NSBC] Village Vanguard! E05 [WEBDL] [1080p] Encoded by : NoNe | NSBC Encoded date : UTC 2019-06-12 01:23:48 Writing application : mkvmerge v34.0.0 ('Sight and Seen') 64-bit Writing library : libebml v1.3.7 + libmatroska v1.5.0 Copyright : NSBC Comment : NoNe | NSBC DATE_RECORDED : 2019 Video ID : 1 Format : AVC Format/Info : Advanced Video Codec Format profile : [email protected] Format settings : CABAC / 4 Ref Frames Format settings, CABAC : Yes Format settings, RefFrames : 4 frames Codec ID : V_MPEG4/ISO/AVC Duration : 23 min 36 s Bit rate : 2 929 kb/s Width : 1 920 pixels Height : 1 080 pixels Display aspect ratio : 16:9 Frame rate mode : Constant Frame rate : 29.970 (30000/1001) FPS Color space : YUV Chroma subsampling : 4:2:0 Bit depth : 8 bits Scan type : Progressive Bits/(Pixel*Frame) : 0.047 Stream size : 494 MiB (98%) Title : [NSBC] Writing library : Zencoder Video Encoding System Default : No Forced : No Color range : Limited Color primaries : BT.709 Transfer characteristics : BT.709 Matrix coefficients : BT.709 Audio ID : 2 Format : AAC LC Format/Info : Advanced Audio Codec Low Complexity Codec ID : A_AAC-2 Duration : 23 min 36 s Bit rate : 63.9 kb/s Channel(s) : 2 channels Channel layout : L R Sampling rate : 48.0 kHz Frame rate : 46.875 FPS (1024 SPF) Compression mode : Lossy Delay relative to video : -67 ms Stream size : 10.8 MiB (2%) Title : [NSBC] Language : Japanese Default : Yes Forced : No ```

File list

  • [NSBC] Village Vanguard! E05 [WEBDL] [1080p].mkv (505.6 MiB)