[NSBC] Yaji x Kita Ganzo Tokaidochu Hizakurige E10 [WEBDL] [720p]

Category:
Date:
2019-06-09 01:46 UTC
Submitter:
Seeders:
4
Information:
TlNCQy50bw==
Leechers:
1
File size:
982.2 MiB
Completed:
303
Info hash:
7d5712dd956134aaf6a119e61c42ada2b1db41d2
![POSTER](http://img.topddl.net/images/cd0f2adef271c5e4e24695597a445bf5.jpg "") ``` General Unique ID : 199436156694967276142651236176708163823 (0x960A01B1AAC4A48FFADAC0C4268AD8EF) Complete name : [NSBC] Yaji x Kita Ganzo Tokaidochu Hizakurige E10 [WEBDL] [720p].mkv Format : Matroska Format version : Version 4 File size : 982 MiB Duration : 43 min 58 s Overall bit rate : 3 123 kb/s Movie name : [NSBC] Yaji x Kita Ganzo Tokaidochu Hizakurige E10 [WEBDL] [720p] Encoded by : NoNe | NSBC Encoded date : UTC 2019-06-09 01:36:08 Writing application : mkvmerge v34.0.0 ('Sight and Seen') 64-bit Writing library : libebml v1.3.7 + libmatroska v1.5.0 Copyright : NSBC Comment : NoNe | NSBC DATE_RECORDED : 2019 Video ID : 1 Format : AVC Format/Info : Advanced Video Codec Format profile : [email protected] Format settings : CABAC / 3 Ref Frames Format settings, CABAC : Yes Format settings, RefFrames : 3 frames Format settings, GOP : M=1, N=30 Codec ID : V_MPEG4/ISO/AVC Duration : 43 min 58 s Bit rate : 2 993 kb/s Width : 1 280 pixels Height : 720 pixels Display aspect ratio : 16:9 Frame rate mode : Constant Frame rate : 29.970 (30000/1001) FPS Color space : YUV Chroma subsampling : 4:2:0 Bit depth : 8 bits Scan type : Progressive Bits/(Pixel*Frame) : 0.108 Stream size : 941 MiB (96%) Title : [NSBC] Writing library : Zencoder Video Encoding System Default : Yes Forced : No Audio ID : 2 Format : AAC LC Format/Info : Advanced Audio Codec Low Complexity Codec ID : A_AAC-2 Duration : 43 min 58 s Bit rate : 128 kb/s Channel(s) : 2 channels Channel layout : L R Sampling rate : 48.0 kHz Frame rate : 46.875 FPS (1024 SPF) Compression mode : Lossy Stream size : 40.2 MiB (4%) Title : [NSBC] Language : Japanese Default : Yes Forced : No ```

File list

  • [NSBC] Yaji x Kita Ganzo Tokaidochu Hizakurige E10 [WEBDL] [720p].mkv (982.2 MiB)
X
Warning! Use a VPN When Downloading Torrents!
Your Country is . IP Address is
Your Internet Provider can see when you download torrents! Hide your IP ADDRESS with a VPN!
We strongly recommend Trust.Zone VPN to hide your torrenting. It's FREE!
HIDE ME NOW