[NSBC] Kamen Dosokai E02 [WEBDL] [720p]

Category:
Date:
2019-06-09 00:31 UTC
Submitter:
Seeders:
8
Information:
TlNCQy50bw==
Leechers:
4
File size:
675.0 MiB
Completed:
440
Info hash:
65490a94f50799f9be4818bd12e2fef026e563c7
![Poster](http://img.topddl.net/images/6f08274ba5f45df1e941ef1236daf6a0.jpg "") ![Thumbnails](http://img.topddl.net/images/c3555b9a686e54f89efece734a730ee1.jpg "") ``` General Unique ID : 26632307923001261051285700481979420798 (0x140932289489090AC026F45A4796907E) Complete name : [NSBC] Kamen Dosokai E02 [WEBDL] [720p].mkv Format : Matroska Format version : Version 4 File size : 675 MiB Duration : 44 min 12 s Overall bit rate mode : Variable Overall bit rate : 2 135 kb/s Movie name : [NSBC] Kamen Dosokai E02 [WEBDL] [720p] Encoded by : NoNe | NSBC Encoded date : UTC 2019-06-09 00:18:20 Writing application : mkvmerge v34.0.0 ('Sight and Seen') 64-bit Writing library : libebml v1.3.7 + libmatroska v1.5.0 Copyright : NSBC Comment : NoNe | NSBC DATE_RECORDED : 2019 Video ID : 1 Format : AVC Format/Info : Advanced Video Codec Format profile : [email protected] Format settings : CABAC / 2 Ref Frames Format settings, CABAC : Yes Format settings, RefFrames : 2 frames Codec ID : V_MPEG4/ISO/AVC Duration : 44 min 11 s Bit rate mode : Variable Bit rate : 2 007 kb/s Maximum bit rate : 6 000 kb/s Width : 1 280 pixels Height : 720 pixels Display aspect ratio : 16:9 Frame rate mode : Constant Frame rate : 29.970 (30000/1001) FPS Color space : YUV Chroma subsampling : 4:2:0 Bit depth : 8 bits Scan type : Progressive Bits/(Pixel*Frame) : 0.073 Stream size : 635 MiB (94%) Title : [NSBC] Default : Yes Forced : No Audio ID : 2 Format : AAC LC Format/Info : Advanced Audio Codec Low Complexity Codec ID : A_AAC-2 Duration : 44 min 11 s Bit rate : 125 kb/s Channel(s) : 2 channels Channel layout : L R Sampling rate : 48.0 kHz Frame rate : 46.875 FPS (1024 SPF) Compression mode : Lossy Delay relative to video : -33 ms Stream size : 39.6 MiB (6%) Title : [NSBC] Language : Japanese Default : Yes Forced : No ```

File list

  • [NSBC] Kamen Dosokai E02 [WEBDL] [720p].mkv (675.0 MiB)
X
Warning! Use a VPN When Downloading Torrents!
Your Country is . IP Address is
Your Internet Provider can see when you download torrents! Hide your IP ADDRESS with a VPN!
We strongly recommend Trust.Zone VPN to hide your torrenting. It's FREE!
HIDE ME NOW