[NSBC] Minami no Teiou ZERO E07 [WEBDL] [1080p]

Category:
Date:
2019-06-07 03:58 UTC
Submitter:
Seeders:
3
Information:
TlNCQy50bw==
Leechers:
0
File size:
327.9 MiB
Completed:
359
Info hash:
f30987406e7269bf575b7da6df868d684b8edb8a
![POSTER](http://img.topddl.net/images/ee4c09c6c2eb607b65b2c915ed8f6ddf.jpg "") ![Thumbnails](http://img.topddl.net/images/d5728abb43bc308c816ffdc58e2227fe.jpg "") ``` General Unique ID : 98377601779324184990593557868450348008 (0x4A02D63FE3C734647D9A4595E256FBE8) Complete name : [NSBC] Minami no Teiou ZERO E07 [WEBDL] [1080p].mkv Format : Matroska Format version : Version 4 File size : 328 MiB Duration : 23 min 59 s Overall bit rate : 1 911 kb/s Movie name : [NSBC] Minami no Teiou ZERO E07 [WEBDL] [1080p] Encoded by : NoNe | NSBC Encoded date : UTC 2019-06-07 03:49:31 Writing application : mkvmerge v34.0.0 ('Sight and Seen') 64-bit Writing library : libebml v1.3.7 + libmatroska v1.5.0 Copyright : NSBC Comment : NoNe | NSBC DATE_RECORDED : 2019 Video ID : 1 Format : AVC Format/Info : Advanced Video Codec Format profile : [email protected] Format settings : CABAC / 4 Ref Frames Format settings, CABAC : Yes Format settings, RefFrames : 4 frames Codec ID : V_MPEG4/ISO/AVC Duration : 23 min 59 s Bit rate : 1 781 kb/s Width : 1 920 pixels Height : 1 080 pixels Display aspect ratio : 16:9 Frame rate mode : Constant Frame rate : 29.970 (30000/1001) FPS Color space : YUV Chroma subsampling : 4:2:0 Bit depth : 8 bits Scan type : Progressive Bits/(Pixel*Frame) : 0.029 Stream size : 306 MiB (93%) Title : [NSBC] Writing library : Zencoder Video Encoding System Default : No Forced : No Color range : Limited Color primaries : BT.709 Transfer characteristics : BT.709 Matrix coefficients : BT.709 VARIANT_BITRATE : 2169200 Audio ID : 2 Format : AAC LC Format/Info : Advanced Audio Codec Low Complexity Codec ID : A_AAC-2 Duration : 23 min 59 s Bit rate : 128 kb/s Channel(s) : 2 channels Channel layout : L R Sampling rate : 48.0 kHz Frame rate : 46.875 FPS (1024 SPF) Compression mode : Lossy Delay relative to video : -67 ms Stream size : 21.9 MiB (7%) Title : [NSBC] Language : Japanese Default : Yes Forced : No Comment : en (Main) VARIANT_BITRATE : 1076900 ```

File list

  • [NSBC] Minami no Teiou ZERO E07 [WEBDL] [1080p].mkv (327.9 MiB)
X
Warning! Use a VPN When Downloading Torrents!
Your Country is . IP Address is
Your Internet Provider can see when you download torrents! Hide your IP ADDRESS with a VPN!
We strongly recommend Trust.Zone VPN to hide your torrenting. It's FREE!
HIDE ME NOW