Bang Dream 2nd season Ep 6 [1080p 60fps ]

Category:
Date:
2019-02-11 01:56 UTC
Submitter:
Anonymous
Seeders:
1
Information:
No information.
Leechers:
0
File size:
895.4 MiB
Completed:
14
Info hash:
2b406cf55d1278e86875c08692a03c4d7030d4c5
*stuttering fix General Unique ID : 272720195794875493341882640254627983602 (0xCD2BFFC86DC2C0B8A1B53BA9E6E3B0F2) Complete name : Format : Matroska Format version : Version 4 / Version 2 File size : 895 MiB Duration : 24 min 25 s Overall bit rate : 5 127 kb/s Encoded date : UTC 2019-02-11 01:45:39 Writing application : mkvmerge v28.2.0 ('The Awakening') 32-bit Writing library : libebml v1.3.6 + libmatroska v1.4.9 Video ID : 1 Format : AVC Format/Info : Advanced Video Codec Format profile : [email protected] Format settings : CABAC / 4 Ref Frames Format settings, CABAC : Yes Format settings, ReFrames : 4 frames Codec ID : V_MPEG4/ISO/AVC Duration : 24 min 25 s Bit rate : 4 933 kb/s Width : 1 920 pixels Height : 1 080 pixels Display aspect ratio : 16:9 Frame rate mode : Constant Frame rate : 60.000 FPS Color space : YUV Chroma subsampling : 4:2:0 Bit depth : 8 bits Scan type : Progressive Bits/(Pixel*Frame) : 0.040 Stream size : 861 MiB (96%) Writing library : x264 core 155 r2901 7d0ff22 Encoding settings : cabac=1 / ref=3 / deblock=1:0:0 / analyse=0x3:0x111 / me=hex / subme=5 / psy=1 / psy_rd=1.00:0.00 / mixed_ref=1 / me_range=16 / chroma_me=1 / trellis=0 / 8x8dct=1 / cqm=0 / deadzone=21,11 / fast_pskip=0 / chroma_qp_offset=0 / threads=9 / lookahead_threads=2 / sliced_threads=0 / nr=0 / decimate=1 / interlaced=0 / bluray_compat=0 / constrained_intra=0 / bframes=3 / b_pyramid=2 / b_adapt=1 / b_bias=0 / direct=3 / weightb=1 / open_gop=0 / weightp=1 / keyint=250 / keyint_min=25 / scenecut=40 / intra_refresh=0 / rc_lookahead=0 / rc=2pass / mbtree=0 / bitrate=4933 / ratetol=1.0 / qcomp=0.50 / qpmin=0 / qpmax=69 / qpstep=4 / cplxblur=20.0 / qblur=0.5 / vbv_maxrate=62500 / vbv_bufsize=78125 / nal_hrd=none / filler=0 / ip_ratio=1.40 / pb_ratio=1.30 / aq=0 Default : Yes Forced : Yes Color range : Limited Matrix coefficients : BT.470 System B/G Audio ID : 2 Format : AAC Format/Info : Advanced Audio Codec Format profile : LC Codec ID : A_AAC-2 Duration : 24 min 25 s Bit rate : 192 kb/s Channel(s) : 2 channels Channel positions : Front: L R Sampling rate : 48.0 kHz Frame rate : 46.875 FPS (1024 SPF) Compression mode : Lossy Delay relative to video : 12 ms Stream size : 33.7 MiB (4%) Default : Yes Forced : No Text ID : 3

File list

  • Bang Dream 2nd season Ep 6 [1080p 60fps ] .mkv (895.4 MiB)